My Future BoyFriend 2011 DVDRip XviD

View previous topic View next topic Go down

My Future BoyFriend 2011 DVDRip XviD

Post by Donutz on Tue Nov 08, 2011 6:20 am

My Future BoyFriend 2011 DVDRip XviD
[You must be registered and logged in to see this image.]

Display aspect ratio : 16:9
Frame rate : 23.976 fps
Color space: YUV
Chroma subsampling : 4:2:0
Bit depth: 8 bits
Scan type: Progressive
Compression mode : Lossy
Bits/(Pixel*Frame) : 0.221
Stream size: 626 MiB (90%)
Writing library: XviD 1.2.1 (UTC 2008-12-04)

Audio
ID : 1
Format : MPEG Audio
Format version : Version 1
Format profile : Layer 3
Mode : Joint stereo
Mode extension : MS Stereo
Codec ID : 55
Codec ID/Hint: MP3
Duration : 1h 15mn
Bit rate mode: Constant
Bit rate : 128 Kbps
Channel(s) : 2 channels
Sampling rate: 48.0 KHz
Compression mode : Lossy
Stream size: 68.7 MiB (10%)
Alignment: Aligned on interleaves
Interleave, duration : 83 ms (2.00 video frames)
Interleave, preload duration : 504 ms
Writing library: LAME3.98r
Encoding settings: -m j -V 4 -q 2 -lowpass 17 -b 128

Download Link :
[You must be registered and logged in to see this link.]

[You must be registered and logged in to see this link.]

[You must be registered and logged in to see this link.]
avatar
Donutz
Donutz-Zone Admin
Donutz-Zone Admin

Posts : 555
Points : 1456
Repute : 0
Join date : 2011-10-29
Age : 27
Location : C:/Program files/Donutz/Zone

http://dzone.pixforum.net

Back to top Go down

View previous topic View next topic Back to top

- Similar topics

 
Permissions in this forum:
You cannot reply to topics in this forum